<?xml version="1.0" standalone="no"?>
<!DOCTYPE svg PUBLIC "-//W3C//DTD SVG 1.1//EN" "http://www.w3.org/Graphics/SVG/1.1/DTD/svg11.dtd" >
<svg xmlns="http://www.w3.org/2000/svg">
<defs>
  <font id="AdmSymbols" horiz-adv-x="1041.6666666666665">
    <font-face font-family="AdmSymbols"
      units-per-em="1000" ascent="1000"
      descent="0" />
    <missing-glyph horiz-adv-x="0" />
    <glyph glyph-name="account_circle_20px"
      unicode="&#xEA01;"
      horiz-adv-x="1000" d="M245.85 291.65Q298.95 335.4 364.05 357.3000000000001Q429.1500000000001 379.15 500 379.15Q570.85 379.15 635.9499999999999 357.3000000000001Q701.05 335.4 755.1999999999999 291.65Q789.6 334.4 809.4 387Q829.1499999999999 439.6 829.1499999999999 500Q829.1499999999999 637.5 733.3499999999999 733.3499999999999Q637.5 829.15 500 829.15T266.6500000000001 733.3499999999999Q170.85 637.5 170.85 500Q170.85 439.6 191.15 387Q211.45 334.4 245.85 291.65zM500 457.3000000000001Q438.5500000000001 457.3000000000001 396.35 499.5Q354.15 541.6500000000001 354.15 603.1Q354.15 664.5999999999999 396.35 706.75Q438.55 748.95 500 748.95T603.65 706.75Q645.85 664.5999999999999 645.85 603.0999999999999Q645.85 541.6499999999999 603.65 499.4999999999999Q561.45 457.3 500 457.3zM500 83.3500000000001Q413.5500000000001 83.3500000000001 337.5 116.15T205.2 205.2000000000001Q148.95 261.4500000000001 116.15 337.5Q83.35 413.5500000000001 83.35 500T116.15 662.5Q148.95 738.55 205.2 794.8T337.5 883.85Q413.5500000000001 916.65 500 916.65T662.5 883.85Q738.5500000000001 851.05 794.8000000000001 794.8T883.85 662.5Q916.6499999999997 586.4499999999999 916.6499999999997 500T883.85 337.5Q851.0500000000001 261.45 794.8 205.1999999999999T662.5 116.15Q586.4499999999999 83.3500000000001 500 83.3500000000001zM501.0500000000001 170.8500000000001Q552.1000000000001 170.8500000000001 601.0500000000001 186.4500000000002Q650 202.1000000000001 689.6000000000001 231.2500000000003Q651.0500000000001 261.4500000000002 602.1000000000001 276.5500000000002Q553.1 291.6500000000002 500.0000000000001 291.6500000000002Q446.9000000000001 291.6500000000002 398.4500000000001 276.5500000000002Q350.0000000000001 261.4500000000003 310.4000000000001 231.2500000000003Q350.0000000000001 202.1000000000001 399.5000000000001 186.4500000000002Q448.9500000000001 170.8500000000001 501.0500000000001 170.8500000000001zM500 544.8000000000001Q526.0500000000001 544.8000000000001 542.1999999999999 560.95Q558.35 577.1000000000001 558.35 603.1000000000001Q558.35 629.1500000000001 542.1999999999999 645.3000000000001Q526.05 661.45 500 661.45Q473.9499999999999 661.45 457.8 645.3000000000001Q441.6500000000001 629.1500000000001 441.6500000000001 603.1000000000001Q441.6500000000001 577.1000000000001 457.8 560.95Q473.95 544.8000000000001 500 544.8000000000001zM500 603.1000000000001zM500 231.25z" />
    <glyph glyph-name="account_circle_20px-1"
      unicode="&#x61;&#x63;&#x63;&#x6F;&#x75;&#x6E;&#x74;&#x5F;&#x63;&#x69;&#x72;&#x63;&#x6C;&#x65;&#x5F;&#x32;&#x30;&#x70;&#x78;"
      horiz-adv-x="1000" d="M245.85 291.65Q298.95 335.4 364.05 357.3000000000001Q429.1500000000001 379.15 500 379.15Q570.85 379.15 635.9499999999999 357.3000000000001Q701.05 335.4 755.1999999999999 291.65Q789.6 334.4 809.4 387Q829.1499999999999 439.6 829.1499999999999 500Q829.1499999999999 637.5 733.3499999999999 733.3499999999999Q637.5 829.15 500 829.15T266.6500000000001 733.3499999999999Q170.85 637.5 170.85 500Q170.85 439.6 191.15 387Q211.45 334.4 245.85 291.65zM500 457.3000000000001Q438.5500000000001 457.3000000000001 396.35 499.5Q354.15 541.6500000000001 354.15 603.1Q354.15 664.5999999999999 396.35 706.75Q438.55 748.95 500 748.95T603.65 706.75Q645.85 664.5999999999999 645.85 603.0999999999999Q645.85 541.6499999999999 603.65 499.4999999999999Q561.45 457.3 500 457.3zM500 83.3500000000001Q413.5500000000001 83.3500000000001 337.5 116.15T205.2 205.2000000000001Q148.95 261.4500000000001 116.15 337.5Q83.35 413.5500000000001 83.35 500T116.15 662.5Q148.95 738.55 205.2 794.8T337.5 883.85Q413.5500000000001 916.65 500 916.65T662.5 883.85Q738.5500000000001 851.05 794.8000000000001 794.8T883.85 662.5Q916.6499999999997 586.4499999999999 916.6499999999997 500T883.85 337.5Q851.0500000000001 261.45 794.8 205.1999999999999T662.5 116.15Q586.4499999999999 83.3500000000001 500 83.3500000000001zM501.0500000000001 170.8500000000001Q552.1000000000001 170.8500000000001 601.0500000000001 186.4500000000002Q650 202.1000000000001 689.6000000000001 231.2500000000003Q651.0500000000001 261.4500000000002 602.1000000000001 276.5500000000002Q553.1 291.6500000000002 500.0000000000001 291.6500000000002Q446.9000000000001 291.6500000000002 398.4500000000001 276.5500000000002Q350.0000000000001 261.4500000000003 310.4000000000001 231.2500000000003Q350.0000000000001 202.1000000000001 399.5000000000001 186.4500000000002Q448.9500000000001 170.8500000000001 501.0500000000001 170.8500000000001zM500 544.8000000000001Q526.0500000000001 544.8000000000001 542.1999999999999 560.95Q558.35 577.1000000000001 558.35 603.1000000000001Q558.35 629.1500000000001 542.1999999999999 645.3000000000001Q526.05 661.45 500 661.45Q473.9499999999999 661.45 457.8 645.3000000000001Q441.6500000000001 629.1500000000001 441.6500000000001 603.1000000000001Q441.6500000000001 577.1000000000001 457.8 560.95Q473.95 544.8000000000001 500 544.8000000000001zM500 603.1000000000001zM500 231.25z" />
    <glyph glyph-name="account_circle_24px"
      unicode="&#xEA02;"
      horiz-adv-x="1000" d="M243.75 287.5Q296.875 328.125 362.5 351.5833333333334Q428.125 375 500 375Q571.875 375 637.5 351.5833333333334Q703.125 328.125 756.25 287.5000000000001Q792.7083333333334 330.2083333333334 813.0416666666667 384.3750000000001Q833.3333333333333 438.5416666666668 833.3333333333333 500Q833.3333333333333 638.5416666666667 735.9583333333333 735.9583333333334Q638.5416666666666 833.3333333333334 500 833.3333333333334T264.0833333333333 735.9583333333334Q166.6666666666667 638.5416666666667 166.6666666666667 500Q166.6666666666667 438.5416666666668 187 384.375Q207.2916666666666 330.2083333333334 243.75 287.5zM500 458.3333333333334Q438.5416666666667 458.3333333333334 396.3333333333333 500.5000000000001Q354.1666666666667 542.7083333333334 354.1666666666667 604.1666666666667T396.3333333333333 707.8333333333333Q438.5416666666667 750 500 750T603.6666666666666 707.8333333333333Q645.8333333333333 665.625 645.8333333333333 604.1666666666667T603.6666666666666 500.5000000000001Q561.4583333333333 458.3333333333334 500 458.3333333333334zM500 83.3333333333334Q413.5416666666667 83.3333333333334 337.5 116.1666666666668Q261.4583333333333 148.9583333333334 205.2083333333333 205.2083333333334Q148.9583333333333 261.4583333333335 116.1666666666667 337.5000000000001Q83.3333333333333 413.5416666666668 83.3333333333333 500T116.1666666666667 662.5Q148.9583333333334 738.5416666666667 205.2083333333334 794.7916666666667Q261.4583333333333 851.0416666666667 337.5000000000001 883.875Q413.5416666666667 916.6666666666666 500 916.6666666666666T662.5 883.875Q738.5416666666666 851.0416666666666 794.7916666666666 794.7916666666667Q851.0416666666666 738.5416666666667 883.8333333333333 662.5Q916.6666666666666 586.4583333333333 916.6666666666666 500T883.8333333333333 337.5Q851.0416666666666 261.4583333333334 794.7916666666666 205.2083333333334Q738.5416666666665 148.9583333333334 662.4999999999999 116.1666666666668Q586.4583333333333 83.3333333333334 500 83.3333333333334zM500 166.6666666666668Q555.2083333333333 166.6666666666668 604.1666666666666 182.7916666666668Q653.125 198.9583333333335 693.7499999999999 229.1666666666668Q653.1249999999999 259.3750000000001 604.1666666666665 275.5416666666668Q555.2083333333333 291.6666666666668 500 291.6666666666668T395.8333333333333 275.5416666666668Q346.875 259.375 306.25 229.1666666666668Q346.875 198.9583333333334 395.8333333333333 182.7916666666668Q444.7916666666667 166.6666666666668 500 166.6666666666668zM500 541.6666666666667Q527.0833333333334 541.6666666666667 544.7916666666666 559.375Q562.5 577.0833333333335 562.5 604.1666666666667Q562.5 631.25 544.7916666666666 648.9583333333333Q527.0833333333334 666.6666666666667 500 666.6666666666667Q472.9166666666666 666.6666666666667 455.2083333333333 648.9583333333333Q437.5 631.25 437.5 604.1666666666667Q437.5 577.0833333333333 455.2083333333333 559.375Q472.9166666666666 541.6666666666667 500 541.6666666666667zM500 604.1666666666667zM500 229.1666666666668z" />
    <glyph glyph-name="account_circle_24px-1"
      unicode="&#x61;&#x63;&#x63;&#x6F;&#x75;&#x6E;&#x74;&#x5F;&#x63;&#x69;&#x72;&#x63;&#x6C;&#x65;&#x5F;&#x32;&#x34;&#x70;&#x78;"
      horiz-adv-x="1000" d="M243.75 287.5Q296.875 328.125 362.5 351.5833333333334Q428.125 375 500 375Q571.875 375 637.5 351.5833333333334Q703.125 328.125 756.25 287.5000000000001Q792.7083333333334 330.2083333333334 813.0416666666667 384.3750000000001Q833.3333333333333 438.5416666666668 833.3333333333333 500Q833.3333333333333 638.5416666666667 735.9583333333333 735.9583333333334Q638.5416666666666 833.3333333333334 500 833.3333333333334T264.0833333333333 735.9583333333334Q166.6666666666667 638.5416666666667 166.6666666666667 500Q166.6666666666667 438.5416666666668 187 384.375Q207.2916666666666 330.2083333333334 243.75 287.5zM500 458.3333333333334Q438.5416666666667 458.3333333333334 396.3333333333333 500.5000000000001Q354.1666666666667 542.7083333333334 354.1666666666667 604.1666666666667T396.3333333333333 707.8333333333333Q438.5416666666667 750 500 750T603.6666666666666 707.8333333333333Q645.8333333333333 665.625 645.8333333333333 604.1666666666667T603.6666666666666 500.5000000000001Q561.4583333333333 458.3333333333334 500 458.3333333333334zM500 83.3333333333334Q413.5416666666667 83.3333333333334 337.5 116.1666666666668Q261.4583333333333 148.9583333333334 205.2083333333333 205.2083333333334Q148.9583333333333 261.4583333333335 116.1666666666667 337.5000000000001Q83.3333333333333 413.5416666666668 83.3333333333333 500T116.1666666666667 662.5Q148.9583333333334 738.5416666666667 205.2083333333334 794.7916666666667Q261.4583333333333 851.0416666666667 337.5000000000001 883.875Q413.5416666666667 916.6666666666666 500 916.6666666666666T662.5 883.875Q738.5416666666666 851.0416666666666 794.7916666666666 794.7916666666667Q851.0416666666666 738.5416666666667 883.8333333333333 662.5Q916.6666666666666 586.4583333333333 916.6666666666666 500T883.8333333333333 337.5Q851.0416666666666 261.4583333333334 794.7916666666666 205.2083333333334Q738.5416666666665 148.9583333333334 662.4999999999999 116.1666666666668Q586.4583333333333 83.3333333333334 500 83.3333333333334zM500 166.6666666666668Q555.2083333333333 166.6666666666668 604.1666666666666 182.7916666666668Q653.125 198.9583333333335 693.7499999999999 229.1666666666668Q653.1249999999999 259.3750000000001 604.1666666666665 275.5416666666668Q555.2083333333333 291.6666666666668 500 291.6666666666668T395.8333333333333 275.5416666666668Q346.875 259.375 306.25 229.1666666666668Q346.875 198.9583333333334 395.8333333333333 182.7916666666668Q444.7916666666667 166.6666666666668 500 166.6666666666668zM500 541.6666666666667Q527.0833333333334 541.6666666666667 544.7916666666666 559.375Q562.5 577.0833333333335 562.5 604.1666666666667Q562.5 631.25 544.7916666666666 648.9583333333333Q527.0833333333334 666.6666666666667 500 666.6666666666667Q472.9166666666666 666.6666666666667 455.2083333333333 648.9583333333333Q437.5 631.25 437.5 604.1666666666667Q437.5 577.0833333333333 455.2083333333333 559.375Q472.9166666666666 541.6666666666667 500 541.6666666666667zM500 604.1666666666667zM500 229.1666666666668z" />
    <glyph glyph-name="add_20px"
      unicode="&#xEA03;"
      horiz-adv-x="1000" d="M462.5 250V462.5H250V537.5H462.5V750H537.5V537.5H750V462.5H537.5V250z" />
    <glyph glyph-name="add_20px-1"
      unicode="&#x61;&#x64;&#x64;&#x5F;&#x32;&#x30;&#x70;&#x78;"
      horiz-adv-x="1000" d="M462.5 250V462.5H250V537.5H462.5V750H537.5V537.5H750V462.5H537.5V250z" />
    <glyph glyph-name="arrow_back_20px"
      unicode="&#xEA04;"
      horiz-adv-x="1000" d="M500 200L200 500L500 800L553.1 746.9L343.75 537.5H800V462.5H343.75L553.1 253.1z" />
    <glyph glyph-name="arrow_back_20px-1"
      unicode="&#x61;&#x72;&#x72;&#x6F;&#x77;&#x5F;&#x62;&#x61;&#x63;&#x6B;&#x5F;&#x32;&#x30;&#x70;&#x78;"
      horiz-adv-x="1000" d="M500 200L200 500L500 800L553.1 746.9L343.75 537.5H800V462.5H343.75L553.1 253.1z" />
    <glyph glyph-name="auto_invest_20px"
      unicode="&#xEA05;"
      horiz-adv-x="1000" d="M344.7915 131.25C270.486 162.5 211.111 211.46 166.6665 278.125C122.222 344.79 100 418.405 100 498.96C100 521.1804999999999 101.736 542.8820000000001 105.2085 564.0625C108.6805 585.2429999999999 113.889 606.25 120.8335 627.0835L46.875 584.375L9.375 650L204.1665 762.5L316.6665 566.6665L252.0835 529.1665L198.9585 620.8335C191.3195 601.389 185.4165 581.4235 181.25 560.9375C177.0835 540.4515 175 519.4445000000001 175 497.915C175 430.5550000000001 193.9235 369.62 231.771 315.105C269.618 260.5900000000001 320.139 221.1800000000001 383.3335 196.875L344.7915 131.25zM650 625V700H756.25C726.39 738.1945000000001 689.235 768.5765 644.79 791.146C600.345 813.7155 552.085 825 500 825C461.111 825 424.653 818.403 390.625 805.2085C356.597 792.014 325.347 774.3054999999999 296.875 752.0835L258.3335 817.7085C291.6665 843.403 328.8195 863.5415 369.7915 878.125C410.764 892.7085 454.1665 900 500 900C560.415 900 616.145 887.6735 667.1899999999999 863.021C718.23 838.3679999999999 762.5 805.2085 800 763.5415V850H875V625H650zM614.585 0L419.7915 112.5L532.29 307.29L597.915 269.79L544.79 178.125C624.655 189.9300000000001 691.3199999999999 226.2150000000001 744.79 286.98C798.265 347.745 825 417.7100000000001 825 496.875C825 505.903 824.655 514.7570000000001 823.9599999999999 523.4375C823.265 532.1179999999999 822.22 540.972 820.8349999999999 550H896.875C898.265 541.6665 899.1300000000001 533.1595 899.48 524.479C899.825 515.7985 900 506.9445 900 497.915C900 403.4700000000001 869.6199999999999 319.445 808.855 245.8350000000001C748.09 172.22 671.1800000000001 126.0400000000001 578.125 107.2900000000001L652.085 64.5849999999999L614.585 0z" />
    <glyph glyph-name="auto_invest_20px-1"
      unicode="&#x61;&#x75;&#x74;&#x6F;&#x5F;&#x69;&#x6E;&#x76;&#x65;&#x73;&#x74;&#x5F;&#x32;&#x30;&#x70;&#x78;"
      horiz-adv-x="1000" d="M344.7915 131.25C270.486 162.5 211.111 211.46 166.6665 278.125C122.222 344.79 100 418.405 100 498.96C100 521.1804999999999 101.736 542.8820000000001 105.2085 564.0625C108.6805 585.2429999999999 113.889 606.25 120.8335 627.0835L46.875 584.375L9.375 650L204.1665 762.5L316.6665 566.6665L252.0835 529.1665L198.9585 620.8335C191.3195 601.389 185.4165 581.4235 181.25 560.9375C177.0835 540.4515 175 519.4445000000001 175 497.915C175 430.5550000000001 193.9235 369.62 231.771 315.105C269.618 260.5900000000001 320.139 221.1800000000001 383.3335 196.875L344.7915 131.25zM650 625V700H756.25C726.39 738.1945000000001 689.235 768.5765 644.79 791.146C600.345 813.7155 552.085 825 500 825C461.111 825 424.653 818.403 390.625 805.2085C356.597 792.014 325.347 774.3054999999999 296.875 752.0835L258.3335 817.7085C291.6665 843.403 328.8195 863.5415 369.7915 878.125C410.764 892.7085 454.1665 900 500 900C560.415 900 616.145 887.6735 667.1899999999999 863.021C718.23 838.3679999999999 762.5 805.2085 800 763.5415V850H875V625H650zM614.585 0L419.7915 112.5L532.29 307.29L597.915 269.79L544.79 178.125C624.655 189.9300000000001 691.3199999999999 226.2150000000001 744.79 286.98C798.265 347.745 825 417.7100000000001 825 496.875C825 505.903 824.655 514.7570000000001 823.9599999999999 523.4375C823.265 532.1179999999999 822.22 540.972 820.8349999999999 550H896.875C898.265 541.6665 899.1300000000001 533.1595 899.48 524.479C899.825 515.7985 900 506.9445 900 497.915C900 403.4700000000001 869.6199999999999 319.445 808.855 245.8350000000001C748.09 172.22 671.1800000000001 126.0400000000001 578.125 107.2900000000001L652.085 64.5849999999999L614.585 0z" />
    <glyph glyph-name="auto_invest_40px"
      unicode="&#xEA06;"
      horiz-adv-x="1000" d="M172.39575 565.625C135.243 581.25 105.5555 605.73 83.33325 639.0625C61.111 672.395 50 709.2025 50 749.48C50 760.59025 50.868 771.441 52.60425 782.03125C54.34025 792.6215 56.9445 803.125 60.41675 813.54175L23.4375 792.1875L4.6875 825L102.08325 881.25L158.33325 783.33325L126.04175 764.58325L99.47925 810.41675C95.65975 800.6945000000001 92.70825 790.7117499999999 90.625 780.46875C88.54175 770.2257500000001 87.5 759.72225 87.5 748.9575C87.5 715.2775 96.96175 684.81 115.8855 657.5525C134.809 630.2950000000001 160.0695 610.59 191.66675 598.4375L172.39575 565.625zM325 812.5V850H378.125C363.195 869.09725 344.6175 884.2882500000001 322.395 895.573C300.1725 906.85775 276.0425 912.5 250 912.5C230.5555 912.5 212.3265 909.2015 195.3125 902.60425C178.2985 896.0070000000001 162.6735 887.15275 148.4375 876.04175L129.16675 908.85425C145.83325 921.7015 164.40975 931.77075 184.89575 939.0625C205.382 946.35425 227.08325 950 250 950C280.2075 950 308.0725 943.83675 333.595 931.5105C359.115 919.184 381.25 902.60425 400 881.77075V925H437.5V812.5H325zM307.2925 500L209.89575 556.25L266.145 653.645L298.9575 634.895L272.395 589.0625C312.3275 594.965 345.66 613.1075000000001 372.395 643.49C399.1325 673.8725 412.5 708.855 412.5 748.4375C412.5 752.9515 412.3275 757.3785 411.98 761.71875C411.6325 766.059 411.11 770.486 410.4175 775H448.4375C449.1325 770.83325 449.5650000000001 766.57975 449.74 762.2395C449.9125 757.8992499999999 450 753.47225 450 748.9575C450 701.735 434.81 659.7225 404.4275 622.9175C374.045 586.11 335.5900000000001 563.02 289.0625 553.645L326.0425 532.2925L307.2925 500z" />
    <glyph glyph-name="auto_invest_40px-1"
      unicode="&#x61;&#x75;&#x74;&#x6F;&#x5F;&#x69;&#x6E;&#x76;&#x65;&#x73;&#x74;&#x5F;&#x34;&#x30;&#x70;&#x78;"
      horiz-adv-x="1000" d="M172.39575 565.625C135.243 581.25 105.5555 605.73 83.33325 639.0625C61.111 672.395 50 709.2025 50 749.48C50 760.59025 50.868 771.441 52.60425 782.03125C54.34025 792.6215 56.9445 803.125 60.41675 813.54175L23.4375 792.1875L4.6875 825L102.08325 881.25L158.33325 783.33325L126.04175 764.58325L99.47925 810.41675C95.65975 800.6945000000001 92.70825 790.7117499999999 90.625 780.46875C88.54175 770.2257500000001 87.5 759.72225 87.5 748.9575C87.5 715.2775 96.96175 684.81 115.8855 657.5525C134.809 630.2950000000001 160.0695 610.59 191.66675 598.4375L172.39575 565.625zM325 812.5V850H378.125C363.195 869.09725 344.6175 884.2882500000001 322.395 895.573C300.1725 906.85775 276.0425 912.5 250 912.5C230.5555 912.5 212.3265 909.2015 195.3125 902.60425C178.2985 896.0070000000001 162.6735 887.15275 148.4375 876.04175L129.16675 908.85425C145.83325 921.7015 164.40975 931.77075 184.89575 939.0625C205.382 946.35425 227.08325 950 250 950C280.2075 950 308.0725 943.83675 333.595 931.5105C359.115 919.184 381.25 902.60425 400 881.77075V925H437.5V812.5H325zM307.2925 500L209.89575 556.25L266.145 653.645L298.9575 634.895L272.395 589.0625C312.3275 594.965 345.66 613.1075000000001 372.395 643.49C399.1325 673.8725 412.5 708.855 412.5 748.4375C412.5 752.9515 412.3275 757.3785 411.98 761.71875C411.6325 766.059 411.11 770.486 410.4175 775H448.4375C449.1325 770.83325 449.5650000000001 766.57975 449.74 762.2395C449.9125 757.8992499999999 450 753.47225 450 748.9575C450 701.735 434.81 659.7225 404.4275 622.9175C374.045 586.11 335.5900000000001 563.02 289.0625 553.645L326.0425 532.2925L307.2925 500z" />
    <glyph glyph-name="bearish_24px"
      unicode="&#xEA07;"
      horiz-adv-x="1000" d="M416 404C400 420 412 440 428 440H572C588 440 599.9999999999999 420 588 404L516 332C508 324 495.9999999999999 324 488 332L416 404zM908 416L852 680C852 684 852 684 852 688L860 696C920 748 916 840 852 888C808 920 752 920 708 888L644 840H352L288 888C248 920 188 920 148 892C80 844 76 752 136 700L144 692C144 688 144 688 144 684L88 420C72 340 104 256 176 208L392 72C456 32 540 32 608 72L824 208C892 252 928 336 908 416zM356 608L420 560H260C260 612 316 640 356 608zM500 200C388 200 312 316 360 420L444 604C452 628 476 640 500 640C524 640 548 624 556 604L640 420C688 316 612 200 500 200zM580 560L644 608C684 636 740 608 740 560H580z" />
    <glyph glyph-name="bearish_24px-1"
      unicode="&#x62;&#x65;&#x61;&#x72;&#x69;&#x73;&#x68;&#x5F;&#x32;&#x34;&#x70;&#x78;"
      horiz-adv-x="1000" d="M416 404C400 420 412 440 428 440H572C588 440 599.9999999999999 420 588 404L516 332C508 324 495.9999999999999 324 488 332L416 404zM908 416L852 680C852 684 852 684 852 688L860 696C920 748 916 840 852 888C808 920 752 920 708 888L644 840H352L288 888C248 920 188 920 148 892C80 844 76 752 136 700L144 692C144 688 144 688 144 684L88 420C72 340 104 256 176 208L392 72C456 32 540 32 608 72L824 208C892 252 928 336 908 416zM356 608L420 560H260C260 612 316 640 356 608zM500 200C388 200 312 316 360 420L444 604C452 628 476 640 500 640C524 640 548 624 556 604L640 420C688 316 612 200 500 200zM580 560L644 608C684 636 740 608 740 560H580z" />
    <glyph glyph-name="bullish_24px"
      unicode="&#xEA08;"
      horiz-adv-x="1000" d="M829.1666666666665 708.3333333333334C862.4999999999999 716.6666666666667 895.8333333333333 733.3333333333333 924.9999999999998 754.1666666666666C1045.8333333333333 845.8333333333334 1012.5 1000 854.1666666666666 1000C1029.1666666666665 862.5 808.3333333333333 762.5 658.3333333333334 850C616.6666666666666 891.6666666666666 566.6666666666667 916.6666666666666 500 916.6666666666666S383.3333333333333 891.6666666666666 341.6666666666667 850C191.6666666666666 766.6666666666667 -29.1666666666667 862.5 145.8333333333333 1000C-12.5 1000 -45.8333333333333 845.8333333333334 75 754.1666666666666C100 733.3333333333333 133.3333333333334 716.6666666666667 170.8333333333333 708.3333333333334L0 625C87.5 508.3333333333333 179.1666666666667 579.1666666666667 237.5 666.6666666666667C212.5 595.8333333333334 208.3333333333333 520.8333333333334 208.3333333333333 520.8333333333334S333.3333333333333 416.6666666666668 391.6666666666667 270.8333333333334C362.5 245.8333333333334 341.6666666666667 204.1666666666666 341.6666666666667 158.3333333333334C341.6666666666667 70.8333333333334 412.5 0 500 0S658.3333333333334 70.8333333333334 658.3333333333334 158.3333333333334C658.3333333333334 200.0000000000001 637.5 241.6666666666668 608.3333333333334 270.8333333333334C666.6666666666666 416.6666666666668 791.6666666666666 520.8333333333334 791.6666666666666 520.8333333333334S783.3333333333334 600 762.5 666.6666666666667C820.8333333333333 579.1666666666667 912.5 508.3333333333333 1000 625L829.1666666666665 708.3333333333334zM312.5 645.8333333333334L416.6666666666667 554.1666666666667C316.6666666666667 495.8333333333334 312.5 645.8333333333334 312.5 645.8333333333334zM495.8333333333333 54.1666666666667C437.5 54.1666666666667 395.8333333333333 100.0000000000001 395.8333333333333 158.3333333333334C395.8333333333333 170.8333333333335 395.8333333333333 183.3333333333335 400 191.6666666666668C404.1666666666667 166.6666666666668 420.8333333333333 145.8333333333334 445.8333333333333 145.8333333333334H549.9999999999999C574.9999999999999 145.8333333333334 591.6666666666666 166.6666666666668 595.8333333333333 191.6666666666668C599.9999999999999 179.1666666666668 599.9999999999999 170.8333333333335 599.9999999999999 158.3333333333334C600 100 554.1666666666666 54.1666666666667 495.8333333333333 54.1666666666667zM583.3333333333333 554.1666666666667L687.5 645.8333333333334C687.5 645.8333333333334 683.3333333333333 495.8333333333334 583.3333333333333 554.1666666666667z" />
    <glyph glyph-name="bullish_24px-1"
      unicode="&#x62;&#x75;&#x6C;&#x6C;&#x69;&#x73;&#x68;&#x5F;&#x32;&#x34;&#x70;&#x78;"
      horiz-adv-x="1000" d="M829.1666666666665 708.3333333333334C862.4999999999999 716.6666666666667 895.8333333333333 733.3333333333333 924.9999999999998 754.1666666666666C1045.8333333333333 845.8333333333334 1012.5 1000 854.1666666666666 1000C1029.1666666666665 862.5 808.3333333333333 762.5 658.3333333333334 850C616.6666666666666 891.6666666666666 566.6666666666667 916.6666666666666 500 916.6666666666666S383.3333333333333 891.6666666666666 341.6666666666667 850C191.6666666666666 766.6666666666667 -29.1666666666667 862.5 145.8333333333333 1000C-12.5 1000 -45.8333333333333 845.8333333333334 75 754.1666666666666C100 733.3333333333333 133.3333333333334 716.6666666666667 170.8333333333333 708.3333333333334L0 625C87.5 508.3333333333333 179.1666666666667 579.1666666666667 237.5 666.6666666666667C212.5 595.8333333333334 208.3333333333333 520.8333333333334 208.3333333333333 520.8333333333334S333.3333333333333 416.6666666666668 391.6666666666667 270.8333333333334C362.5 245.8333333333334 341.6666666666667 204.1666666666666 341.6666666666667 158.3333333333334C341.6666666666667 70.8333333333334 412.5 0 500 0S658.3333333333334 70.8333333333334 658.3333333333334 158.3333333333334C658.3333333333334 200.0000000000001 637.5 241.6666666666668 608.3333333333334 270.8333333333334C666.6666666666666 416.6666666666668 791.6666666666666 520.8333333333334 791.6666666666666 520.8333333333334S783.3333333333334 600 762.5 666.6666666666667C820.8333333333333 579.1666666666667 912.5 508.3333333333333 1000 625L829.1666666666665 708.3333333333334zM312.5 645.8333333333334L416.6666666666667 554.1666666666667C316.6666666666667 495.8333333333334 312.5 645.8333333333334 312.5 645.8333333333334zM495.8333333333333 54.1666666666667C437.5 54.1666666666667 395.8333333333333 100.0000000000001 395.8333333333333 158.3333333333334C395.8333333333333 170.8333333333335 395.8333333333333 183.3333333333335 400 191.6666666666668C404.1666666666667 166.6666666666668 420.8333333333333 145.8333333333334 445.8333333333333 145.8333333333334H549.9999999999999C574.9999999999999 145.8333333333334 591.6666666666666 166.6666666666668 595.8333333333333 191.6666666666668C599.9999999999999 179.1666666666668 599.9999999999999 170.8333333333335 599.9999999999999 158.3333333333334C600 100 554.1666666666666 54.1666666666667 495.8333333333333 54.1666666666667zM583.3333333333333 554.1666666666667L687.5 645.8333333333334C687.5 645.8333333333334 683.3333333333333 495.8333333333334 583.3333333333333 554.1666666666667z" />
    <glyph glyph-name="check_24px"
      unicode="&#xEA09;"
      horiz-adv-x="1000" d="M397.9166666666667 250L160.4166666666667 487.5L219.7916666666667 546.875L397.9166666666667 368.75L780.2083333333334 751.0416666666667L839.5833333333333 691.6666666666667z" />
    <glyph glyph-name="check_24px-1"
      unicode="&#x63;&#x68;&#x65;&#x63;&#x6B;&#x5F;&#x32;&#x34;&#x70;&#x78;"
      horiz-adv-x="1000" d="M397.9166666666667 250L160.4166666666667 487.5L219.7916666666667 546.875L397.9166666666667 368.75L780.2083333333334 751.0416666666667L839.5833333333333 691.6666666666667z" />
    <glyph glyph-name="check_40px"
      unicode="&#xEA0A;"
      horiz-adv-x="1000" d="M394.8 254.1750000000001L160.425 488.5500000000001L210.425 538.5500000000001L394.8 353.125L789.5749999999999 747.925L838.5500000000001 697.925z" />
    <glyph glyph-name="check_40px-1"
      unicode="&#x63;&#x68;&#x65;&#x63;&#x6B;&#x5F;&#x34;&#x30;&#x70;&#x78;"
      horiz-adv-x="1000" d="M394.8 254.1750000000001L160.425 488.5500000000001L210.425 538.5500000000001L394.8 353.125L789.5749999999999 747.925L838.5500000000001 697.925z" />
    <glyph glyph-name="chevron_left_24px"
      unicode="&#xEA0B;"
      horiz-adv-x="1000" d="M583.3333333333333 250L333.3333333333333 500L583.3333333333333 750L641.6666666666666 691.6666666666667L450 500L641.6666666666666 308.3333333333333z" />
    <glyph glyph-name="chevron_left_24px-1"
      unicode="&#x63;&#x68;&#x65;&#x76;&#x72;&#x6F;&#x6E;&#x5F;&#x6C;&#x65;&#x66;&#x74;&#x5F;&#x32;&#x34;&#x70;&#x78;"
      horiz-adv-x="1000" d="M583.3333333333333 250L333.3333333333333 500L583.3333333333333 750L641.6666666666666 691.6666666666667L450 500L641.6666666666666 308.3333333333333z" />
    <glyph glyph-name="chevron_right_20px"
      unicode="&#xEA0C;"
      horiz-adv-x="1000" d="M400 250L346.9 303.1L543.75 500L346.9 696.9L400 750L650 500z" />
    <glyph glyph-name="chevron_right_20px-1"
      unicode="&#x63;&#x68;&#x65;&#x76;&#x72;&#x6F;&#x6E;&#x5F;&#x72;&#x69;&#x67;&#x68;&#x74;&#x5F;&#x32;&#x30;&#x70;&#x78;"
      horiz-adv-x="1000" d="M400 250L346.9 303.1L543.75 500L346.9 696.9L400 750L650 500z" />
    <glyph glyph-name="close_20px"
      unicode="&#xEA0D;"
      horiz-adv-x="1000" d="M303.1 250L250 303.1L446.9000000000001 500L250 696.9L303.1 750L500 553.0999999999999L696.9 750L750 696.9L553.1 500L750 303.1L696.9 250L500 446.9z" />
    <glyph glyph-name="close_20px-1"
      unicode="&#x63;&#x6C;&#x6F;&#x73;&#x65;&#x5F;&#x32;&#x30;&#x70;&#x78;"
      horiz-adv-x="1000" d="M303.1 250L250 303.1L446.9000000000001 500L250 696.9L303.1 750L500 553.0999999999999L696.9 750L750 696.9L553.1 500L750 303.1L696.9 250L500 446.9z" />
    <glyph glyph-name="close_40px"
      unicode="&#xEA0E;"
      horiz-adv-x="1000" d="M261.45 213.5500000000001L213.55 261.4500000000001L451.0500000000001 500L213.5500000000001 738.55L261.4500000000001 786.45L500 548.9499999999999L738.5500000000001 786.4499999999999L786.45 738.55L548.95 500L786.45 261.45L738.5500000000001 213.55L500 451.05z" />
    <glyph glyph-name="close_40px-1"
      unicode="&#x63;&#x6C;&#x6F;&#x73;&#x65;&#x5F;&#x34;&#x30;&#x70;&#x78;"
      horiz-adv-x="1000" d="M261.45 213.5500000000001L213.55 261.4500000000001L451.0500000000001 500L213.5500000000001 738.55L261.4500000000001 786.45L500 548.9499999999999L738.5500000000001 786.4499999999999L786.45 738.55L548.95 500L786.45 261.45L738.5500000000001 213.55L500 451.05z" />
    <glyph glyph-name="dashboard_20px"
      unicode="&#xEA0F;"
      horiz-adv-x="1000" d="M541.65 631.25V875H875V631.25zM125 456.25V875H454.15V456.25zM541.65 125V543.75H875V125zM125 125V368.75H454.15V125zM212.5 543.75H366.6500000000001V787.5H212.5zM629.15 212.5H787.5V456.25H629.15zM629.15 718.75H787.5V787.5H629.15zM212.5 212.5H366.6500000000001V281.25H212.5zM366.6500000000001 543.75zM629.15 718.75zM629.15 456.25zM366.6500000000001 281.25z" />
    <glyph glyph-name="dashboard_20px-1"
      unicode="&#x64;&#x61;&#x73;&#x68;&#x62;&#x6F;&#x61;&#x72;&#x64;&#x5F;&#x32;&#x30;&#x70;&#x78;"
      horiz-adv-x="1000" d="M541.65 631.25V875H875V631.25zM125 456.25V875H454.15V456.25zM541.65 125V543.75H875V125zM125 125V368.75H454.15V125zM212.5 543.75H366.6500000000001V787.5H212.5zM629.15 212.5H787.5V456.25H629.15zM629.15 718.75H787.5V787.5H629.15zM212.5 212.5H366.6500000000001V281.25H212.5zM366.6500000000001 543.75zM629.15 718.75zM629.15 456.25zM366.6500000000001 281.25z" />
    <glyph glyph-name="dashboard_fill1_20px"
      unicode="&#xEA10;"
      horiz-adv-x="1000" d="M541.65 631.25V875H875V631.25zM125 456.25V875H454.15V456.25zM541.65 125V543.75H875V125zM125 125V368.75H454.15V125z" />
    <glyph glyph-name="dashboard_fill1_20px-1"
      unicode="&#x64;&#x61;&#x73;&#x68;&#x62;&#x6F;&#x61;&#x72;&#x64;&#x5F;&#x66;&#x69;&#x6C;&#x6C;&#x31;&#x5F;&#x32;&#x30;&#x70;&#x78;"
      horiz-adv-x="1000" d="M541.65 631.25V875H875V631.25zM125 456.25V875H454.15V456.25zM541.65 125V543.75H875V125zM125 125V368.75H454.15V125z" />
    <glyph glyph-name="date_range_20px"
      unicode="&#xEA11;"
      horiz-adv-x="1000" d="M337.5 425Q321.9 425 310.95 435.95Q300 446.9 300 462.5Q300 478.1 310.95 489.05Q321.9 500 337.5 500Q353.1 500 364.05 489.05Q375 478.1 375 462.5Q375 446.9 364.05 435.95Q353.1 425 337.5 425zM500 425Q484.4 425 473.45 435.95Q462.5 446.9 462.5 462.5Q462.5 478.1 473.45 489.05Q484.4 500 500 500Q515.6 500 526.5500000000001 489.05Q537.5 478.1 537.5 462.5Q537.5 446.9 526.5500000000001 435.95Q515.6 425 500 425zM662.5 425Q646.9 425 635.9499999999999 435.95Q625 446.9 625 462.5Q625 478.1 635.9499999999999 489.05Q646.9 500 662.5 500Q678.1 500 689.0500000000001 489.05Q700 478.1 700 462.5Q700 446.9 689.0500000000001 435.95Q678.1 425 662.5 425zM225 100Q193.75 100 171.9 122.4Q150 144.8000000000001 150 175V725Q150 755.2 171.9 777.5999999999999Q193.75 800 225 800H300V900H375V800H625V900H700V800H775Q806.25 800 828.1 777.5999999999999Q850 755.2 850 725V175Q850 144.8000000000001 828.1 122.4Q806.25 100 775 100zM225 175H775V550H225V175zM225 625H775V725H225zM225 625V725V625z" />
    <glyph glyph-name="date_range_20px-1"
      unicode="&#x64;&#x61;&#x74;&#x65;&#x5F;&#x72;&#x61;&#x6E;&#x67;&#x65;&#x5F;&#x32;&#x30;&#x70;&#x78;"
      horiz-adv-x="1000" d="M337.5 425Q321.9 425 310.95 435.95Q300 446.9 300 462.5Q300 478.1 310.95 489.05Q321.9 500 337.5 500Q353.1 500 364.05 489.05Q375 478.1 375 462.5Q375 446.9 364.05 435.95Q353.1 425 337.5 425zM500 425Q484.4 425 473.45 435.95Q462.5 446.9 462.5 462.5Q462.5 478.1 473.45 489.05Q484.4 500 500 500Q515.6 500 526.5500000000001 489.05Q537.5 478.1 537.5 462.5Q537.5 446.9 526.5500000000001 435.95Q515.6 425 500 425zM662.5 425Q646.9 425 635.9499999999999 435.95Q625 446.9 625 462.5Q625 478.1 635.9499999999999 489.05Q646.9 500 662.5 500Q678.1 500 689.0500000000001 489.05Q700 478.1 700 462.5Q700 446.9 689.0500000000001 435.95Q678.1 425 662.5 425zM225 100Q193.75 100 171.9 122.4Q150 144.8000000000001 150 175V725Q150 755.2 171.9 777.5999999999999Q193.75 800 225 800H300V900H375V800H625V900H700V800H775Q806.25 800 828.1 777.5999999999999Q850 755.2 850 725V175Q850 144.8000000000001 828.1 122.4Q806.25 100 775 100zM225 175H775V550H225V175zM225 625H775V725H225zM225 625V725V625z" />
    <glyph glyph-name="delete_20px"
      unicode="&#xEA12;"
      horiz-adv-x="1000" d="M294.8 125Q258.35 125 232.8 150.5000000000001Q207.3 176.0500000000001 207.3 212.5000000000001V743.75H166.65V831.25H377.1V875H622.9V831.25H833.3500000000001V743.75H791.6500000000001V212.5Q791.6500000000001 176.0500000000001 766.1500000000001 150.5000000000001Q740.6000000000001 125 704.1500000000001 125zM704.1499999999999 743.75H294.8V212.5H704.1499999999999zM372.9000000000001 300H460.4V656.25H372.9000000000001zM538.5500000000001 300H626.0500000000001V656.25H538.5500000000001zM294.8 743.75V212.5z" />
    <glyph glyph-name="delete_20px-1"
      unicode="&#x64;&#x65;&#x6C;&#x65;&#x74;&#x65;&#x5F;&#x32;&#x30;&#x70;&#x78;"
      horiz-adv-x="1000" d="M294.8 125Q258.35 125 232.8 150.5000000000001Q207.3 176.0500000000001 207.3 212.5000000000001V743.75H166.65V831.25H377.1V875H622.9V831.25H833.3500000000001V743.75H791.6500000000001V212.5Q791.6500000000001 176.0500000000001 766.1500000000001 150.5000000000001Q740.6000000000001 125 704.1500000000001 125zM704.1499999999999 743.75H294.8V212.5H704.1499999999999zM372.9000000000001 300H460.4V656.25H372.9000000000001zM538.5500000000001 300H626.0500000000001V656.25H538.5500000000001zM294.8 743.75V212.5z" />
    <glyph glyph-name="energy_40px"
      unicode="&#xEA13;"
      horiz-adv-x="1000" d="M419.9975 846.6659999999999C413.73 846.6635 407.665 844.454 402.865 840.42525C398.065 836.3965000000001 394.835 830.806 393.7475 824.6347499999999L314.2675 480.4675L314.3200000000001 480.415C313.6725 478.11 313.34 475.7275 313.3300000000001 473.3325C313.3300000000001 466.26 316.14 459.4775000000001 321.14 454.4775C326.1425 449.475 332.925 446.665 339.9975 446.665H486.6625L447.185 185.3125C446.8325 183.5625 446.66 181.7824999999999 446.6625 180.0000000000001C446.6625 172.9274999999999 449.4725 166.145 454.475 161.1425000000001C459.475 156.1424999999999 466.2575000000001 153.3325 473.33 153.3325C478.175 153.34 482.9275 154.6675 487.075 157.1725000000001C491.2225 159.6774999999999 494.61 163.265 496.8725 167.5525H496.925L681.5075 510.9375L681.2475000000001 511.405C684.4025 515.7874999999999 686.6625 520.8575 686.6625 526.665C686.6625 541.385 674.7175000000001 553.3325 659.9975 553.3325H513.33L604.3199999999999 809.06175C605.865 812.501 606.665 816.22875 606.6625 819.99925C606.6625 827.0717500000001 603.855 833.8545 598.8525 838.8555C593.8525000000001 843.8565 587.07 846.6659999999999 579.9975 846.6659999999999H419.9975z" />
    <glyph glyph-name="energy_40px-1"
      unicode="&#x65;&#x6E;&#x65;&#x72;&#x67;&#x79;&#x5F;&#x34;&#x30;&#x70;&#x78;"
      horiz-adv-x="1000" d="M419.9975 846.6659999999999C413.73 846.6635 407.665 844.454 402.865 840.42525C398.065 836.3965000000001 394.835 830.806 393.7475 824.6347499999999L314.2675 480.4675L314.3200000000001 480.415C313.6725 478.11 313.34 475.7275 313.3300000000001 473.3325C313.3300000000001 466.26 316.14 459.4775000000001 321.14 454.4775C326.1425 449.475 332.925 446.665 339.9975 446.665H486.6625L447.185 185.3125C446.8325 183.5625 446.66 181.7824999999999 446.6625 180.0000000000001C446.6625 172.9274999999999 449.4725 166.145 454.475 161.1425000000001C459.475 156.1424999999999 466.2575000000001 153.3325 473.33 153.3325C478.175 153.34 482.9275 154.6675 487.075 157.1725000000001C491.2225 159.6774999999999 494.61 163.265 496.8725 167.5525H496.925L681.5075 510.9375L681.2475000000001 511.405C684.4025 515.7874999999999 686.6625 520.8575 686.6625 526.665C686.6625 541.385 674.7175000000001 553.3325 659.9975 553.3325H513.33L604.3199999999999 809.06175C605.865 812.501 606.665 816.22875 606.6625 819.99925C606.6625 827.0717500000001 603.855 833.8545 598.8525 838.8555C593.8525000000001 843.8565 587.07 846.6659999999999 579.9975 846.6659999999999H419.9975z" />
    <glyph glyph-name="expand_more_20px"
      unicode="&#xEA14;"
      horiz-adv-x="1000" d="M500 346.9L250 596.9000000000001L303.1 650L500 453.1L696.9 650L750 596.9000000000001z" />
    <glyph glyph-name="expand_more_20px-1"
      unicode="&#x65;&#x78;&#x70;&#x61;&#x6E;&#x64;&#x5F;&#x6D;&#x6F;&#x72;&#x65;&#x5F;&#x32;&#x30;&#x70;&#x78;"
      horiz-adv-x="1000" d="M500 346.9L250 596.9000000000001L303.1 650L500 453.1L696.9 650L750 596.9000000000001z" />
    <glyph glyph-name="fullscreen_20px"
      unicode="&#xEA15;"
      horiz-adv-x="1000" d="M208.35 208.35V417.7H295.85V295.85H417.7V208.35zM208.35 582.3000000000001V791.65H417.7V704.1500000000001H295.85V582.3000000000001zM582.3000000000001 208.3500000000001V295.8500000000002H704.15V417.7000000000001H791.65V208.3500000000001zM704.15 582.3000000000001V704.1500000000001H582.3000000000001V791.65H791.6500000000001V582.3000000000001z" />
    <glyph glyph-name="fullscreen_20px-1"
      unicode="&#x66;&#x75;&#x6C;&#x6C;&#x73;&#x63;&#x72;&#x65;&#x65;&#x6E;&#x5F;&#x32;&#x30;&#x70;&#x78;"
      horiz-adv-x="1000" d="M208.35 208.35V417.7H295.85V295.85H417.7V208.35zM208.35 582.3000000000001V791.65H417.7V704.1500000000001H295.85V582.3000000000001zM582.3000000000001 208.3500000000001V295.8500000000002H704.15V417.7000000000001H791.65V208.3500000000001zM704.15 582.3000000000001V704.1500000000001H582.3000000000001V791.65H791.6500000000001V582.3000000000001z" />
    <glyph glyph-name="grade_20px"
      unicode="&#xEA16;"
      horiz-adv-x="1000" d="M393.75 301.0500000000001L500 382.3000000000001L606.25 301.0500000000001L566.65 430.2000000000001L685.4 525H542.6999999999999L500 656.25L458.35 525H314.6L434.3999999999999 430.2zM253.1 100L346.9000000000001 403.1L100 600H403.1000000000001L500 900L596.9 600H900L653.1 403.1L746.9 100L500 287.5zM500 479.15z" />
    <glyph glyph-name="grade_20px-1"
      unicode="&#x67;&#x72;&#x61;&#x64;&#x65;&#x5F;&#x32;&#x30;&#x70;&#x78;"
      horiz-adv-x="1000" d="M393.75 301.0500000000001L500 382.3000000000001L606.25 301.0500000000001L566.65 430.2000000000001L685.4 525H542.6999999999999L500 656.25L458.35 525H314.6L434.3999999999999 430.2zM253.1 100L346.9000000000001 403.1L100 600H403.1000000000001L500 900L596.9 600H900L653.1 403.1L746.9 100L500 287.5zM500 479.15z" />
    <glyph glyph-name="grade_fill1_20px"
      unicode="&#xEA17;"
      horiz-adv-x="1000" d="M253.1 100L346.9000000000001 403.1L100 600H403.1000000000001L500 900L596.9 600H900L653.1 403.1L746.9 100L500 287.5z" />
    <glyph glyph-name="grade_fill1_20px-1"
      unicode="&#x67;&#x72;&#x61;&#x64;&#x65;&#x5F;&#x66;&#x69;&#x6C;&#x6C;&#x31;&#x5F;&#x32;&#x30;&#x70;&#x78;"
      horiz-adv-x="1000" d="M253.1 100L346.9000000000001 403.1L100 600H403.1000000000001L500 900L596.9 600H900L653.1 403.1L746.9 100L500 287.5z" />
    <glyph glyph-name="grid_view_20px"
      unicode="&#xEA18;"
      horiz-adv-x="1000" d="M125 543.75V875H456.25V543.75zM125 125V456.25H456.25V125zM543.75 543.75V875H875V543.75zM543.75 125V456.25H875V125zM212.5 631.25H368.75V787.5H212.5zM631.25 631.25H787.5V787.5H631.25zM631.25 212.5H787.5V368.75H631.25zM212.5 212.5H368.75V368.75H212.5zM631.25 631.25zM631.25 368.75zM368.75 368.75zM368.75 631.25z" />
    <glyph glyph-name="grid_view_20px-1"
      unicode="&#x67;&#x72;&#x69;&#x64;&#x5F;&#x76;&#x69;&#x65;&#x77;&#x5F;&#x32;&#x30;&#x70;&#x78;"
      horiz-adv-x="1000" d="M125 543.75V875H456.25V543.75zM125 125V456.25H456.25V125zM543.75 543.75V875H875V543.75zM543.75 125V456.25H875V125zM212.5 631.25H368.75V787.5H212.5zM631.25 631.25H787.5V787.5H631.25zM631.25 212.5H787.5V368.75H631.25zM212.5 212.5H368.75V368.75H212.5zM631.25 631.25zM631.25 368.75zM368.75 368.75zM368.75 631.25z" />
    <glyph glyph-name="history_20px"
      unicode="&#xEA19;"
      horiz-adv-x="1000" d="M610.4 323.95L453.1000000000001 483.35V708.3499999999999H540.6V517.6999999999999L671.9 385.3999999999999zM501.0500000000001 125Q355.2000000000001 125 248.4500000000001 220.3000000000001Q141.6500000000001 315.6 127.1000000000001 459.4H214.6000000000001Q228.1000000000001 352.1000000000002 309.9000000000001 282.3000000000001Q391.6500000000001 212.5 501.0500000000001 212.5Q620.8500000000001 212.5 704.1500000000001 296.35Q787.5 380.2 787.5 500Q787.5 619.8 704.15 703.6500000000001Q620.85 787.5 501.0500000000001 787.5Q429.1500000000001 787.5 365.6000000000001 754.15Q302.1000000000001 720.8499999999999 262.5000000000001 661.45H371.9000000000001V573.9499999999999H125V830.2H212.5V740.6Q264.6 807.3 340.6 841.1500000000001Q416.6500000000001 875 501.0500000000001 875Q578.1 875 646.35 845.85Q714.6000000000001 816.65 765.6 765.5999999999999Q816.6500000000001 714.5999999999999 845.8500000000001 646.3499999999999Q875 578.0999999999999 875 501.05Q875 422.8999999999999 845.8500000000001 354.7Q816.6500000000001 286.45 765.6 235.3999999999999Q714.6000000000001 184.4 646.9 154.6999999999999Q579.15 124.9999999999998 501.0500000000001 124.9999999999998z" />
    <glyph glyph-name="history_20px-1"
      unicode="&#x68;&#x69;&#x73;&#x74;&#x6F;&#x72;&#x79;&#x5F;&#x32;&#x30;&#x70;&#x78;"
      horiz-adv-x="1000" d="M610.4 323.95L453.1000000000001 483.35V708.3499999999999H540.6V517.6999999999999L671.9 385.3999999999999zM501.0500000000001 125Q355.2000000000001 125 248.4500000000001 220.3000000000001Q141.6500000000001 315.6 127.1000000000001 459.4H214.6000000000001Q228.1000000000001 352.1000000000002 309.9000000000001 282.3000000000001Q391.6500000000001 212.5 501.0500000000001 212.5Q620.8500000000001 212.5 704.1500000000001 296.35Q787.5 380.2 787.5 500Q787.5 619.8 704.15 703.6500000000001Q620.85 787.5 501.0500000000001 787.5Q429.1500000000001 787.5 365.6000000000001 754.15Q302.1000000000001 720.8499999999999 262.5000000000001 661.45H371.9000000000001V573.9499999999999H125V830.2H212.5V740.6Q264.6 807.3 340.6 841.1500000000001Q416.6500000000001 875 501.0500000000001 875Q578.1 875 646.35 845.85Q714.6000000000001 816.65 765.6 765.5999999999999Q816.6500000000001 714.5999999999999 845.8500000000001 646.3499999999999Q875 578.0999999999999 875 501.05Q875 422.8999999999999 845.8500000000001 354.7Q816.6500000000001 286.45 765.6 235.3999999999999Q714.6000000000001 184.4 646.9 154.6999999999999Q579.15 124.9999999999998 501.0500000000001 124.9999999999998z" />
    <glyph glyph-name="history_fill1_20px"
      unicode="&#xEA1A;"
      horiz-adv-x="1000" d="M610.4 323.95L453.1000000000001 483.35V708.3499999999999H540.6V517.6999999999999L671.9 385.3999999999999zM501.0500000000001 125Q355.2000000000001 125 248.4500000000001 220.3000000000001Q141.6500000000001 315.6 127.1000000000001 459.4H214.6000000000001Q228.1000000000001 352.1000000000002 309.9000000000001 282.3000000000001Q391.6500000000001 212.5 501.0500000000001 212.5Q620.8500000000001 212.5 704.1500000000001 296.35Q787.5 380.2 787.5 500Q787.5 619.8 704.15 703.6500000000001Q620.85 787.5 501.0500000000001 787.5Q429.1500000000001 787.5 365.6000000000001 754.15Q302.1000000000001 720.8499999999999 262.5000000000001 661.45H371.9000000000001V573.9499999999999H125V830.2H212.5V740.6Q264.6 807.3 340.6 841.1500000000001Q416.6500000000001 875 501.0500000000001 875Q578.1 875 646.35 845.85Q714.6000000000001 816.65 765.6 765.5999999999999Q816.6500000000001 714.5999999999999 845.8500000000001 646.3499999999999Q875 578.0999999999999 875 501.05Q875 422.8999999999999 845.8500000000001 354.7Q816.6500000000001 286.45 765.6 235.3999999999999Q714.6000000000001 184.4 646.9 154.6999999999999Q579.15 124.9999999999998 501.0500000000001 124.9999999999998z" />
    <glyph glyph-name="history_fill1_20px-1"
      unicode="&#x68;&#x69;&#x73;&#x74;&#x6F;&#x72;&#x79;&#x5F;&#x66;&#x69;&#x6C;&#x6C;&#x31;&#x5F;&#x32;&#x30;&#x70;&#x78;"
      horiz-adv-x="1000" d="M610.4 323.95L453.1000000000001 483.35V708.3499999999999H540.6V517.6999999999999L671.9 385.3999999999999zM501.0500000000001 125Q355.2000000000001 125 248.4500000000001 220.3000000000001Q141.6500000000001 315.6 127.1000000000001 459.4H214.6000000000001Q228.1000000000001 352.1000000000002 309.9000000000001 282.3000000000001Q391.6500000000001 212.5 501.0500000000001 212.5Q620.8500000000001 212.5 704.1500000000001 296.35Q787.5 380.2 787.5 500Q787.5 619.8 704.15 703.6500000000001Q620.85 787.5 501.0500000000001 787.5Q429.1500000000001 787.5 365.6000000000001 754.15Q302.1000000000001 720.8499999999999 262.5000000000001 661.45H371.9000000000001V573.9499999999999H125V830.2H212.5V740.6Q264.6 807.3 340.6 841.1500000000001Q416.6500000000001 875 501.0500000000001 875Q578.1 875 646.35 845.85Q714.6000000000001 816.65 765.6 765.5999999999999Q816.6500000000001 714.5999999999999 845.8500000000001 646.3499999999999Q875 578.0999999999999 875 501.05Q875 422.8999999999999 845.8500000000001 354.7Q816.6500000000001 286.45 765.6 235.3999999999999Q714.6000000000001 184.4 646.9 154.6999999999999Q579.15 124.9999999999998 501.0500000000001 124.9999999999998z" />
    <glyph glyph-name="home_fill1_20px"
      unicode="&#xEA1B;"
      horiz-adv-x="1000" d="M166.65 125V623.95L500 875L833.3500000000001 623.95V125H562.5V407.3000000000001H436.45V125z" />
    <glyph glyph-name="home_fill1_20px-1"
      unicode="&#x68;&#x6F;&#x6D;&#x65;&#x5F;&#x66;&#x69;&#x6C;&#x6C;&#x31;&#x5F;&#x32;&#x30;&#x70;&#x78;"
      horiz-adv-x="1000" d="M166.65 125V623.95L500 875L833.3500000000001 623.95V125H562.5V407.3000000000001H436.45V125z" />
    <glyph glyph-name="hotel_class_40px"
      unicode="&#xEA1C;"
      horiz-adv-x="1000" d="M458.3249999999999 472.9250000000001zM201.05 83.3249999999999L297.925 400L41.675 583.3249999999999H358.325L458.3249999999999 916.675L558.3249999999999 583.3249999999999H875L618.75 400L715.625 83.3249999999999L458.3249999999999 279.175zM330.2 270.825L458.3249999999999 368.75L586.4499999999999 270.825L536.4499999999999 433.325L655.1999999999999 512.5H511.4499999999999L458.3249999999999 676.05L405.2 512.5H261.45L380.2 433.325zM876.0500000000001 83.3249999999999L780.2 156.25L715.625 366.6750000000001L865.625 473.95H984.375L796.875 338.5500000000001zM620.8249999999999 666.675L589.5749999999999 772.925L632.3 916.675L708.3249999999999 666.675z" />
    <glyph glyph-name="hotel_class_40px-1"
      unicode="&#x68;&#x6F;&#x74;&#x65;&#x6C;&#x5F;&#x63;&#x6C;&#x61;&#x73;&#x73;&#x5F;&#x34;&#x30;&#x70;&#x78;"
      horiz-adv-x="1000" d="M458.3249999999999 472.9250000000001zM201.05 83.3249999999999L297.925 400L41.675 583.3249999999999H358.325L458.3249999999999 916.675L558.3249999999999 583.3249999999999H875L618.75 400L715.625 83.3249999999999L458.3249999999999 279.175zM330.2 270.825L458.3249999999999 368.75L586.4499999999999 270.825L536.4499999999999 433.325L655.1999999999999 512.5H511.4499999999999L458.3249999999999 676.05L405.2 512.5H261.45L380.2 433.325zM876.0500000000001 83.3249999999999L780.2 156.25L715.625 366.6750000000001L865.625 473.95H984.375L796.875 338.5500000000001zM620.8249999999999 666.675L589.5749999999999 772.925L632.3 916.675L708.3249999999999 666.675z" />
    <glyph glyph-name="info_20px"
      unicode="&#xEA1D;"
      horiz-adv-x="1000" d="M462.5 300H537.5V550H462.5zM500 625Q515.6 625 526.5500000000001 635.95Q537.5 646.9000000000001 537.5 662.5Q537.5 678.1 526.5500000000001 689.05Q515.6 700 500 700Q484.4 700 473.45 689.05Q462.5 678.0999999999999 462.5 662.5Q462.5 646.9 473.45 635.95Q484.3999999999999 625 500 625zM500 100Q417.7 100 344.8 131.25Q271.9 162.5 217.2 217.1999999999999T131.25 344.8Q100 417.7 100 500Q100 583.3499999999999 131.25 655.75Q162.5 728.1 217.2 782.8000000000001Q271.9 837.5 344.8 868.75T500 900Q583.35 900 655.75 868.75Q728.1 837.5 782.8000000000001 782.8Q837.5 728.0999999999999 868.75 655.75Q900 583.3499999999999 900 500Q900 417.7 868.75 344.8000000000001Q837.5 271.9 782.8000000000001 217.2000000000001T655.75 131.25Q583.35 100 500 100zM500 175Q635.4 175 730.1999999999999 269.8000000000001T825 500Q825 635.4000000000001 730.1999999999999 730.2T500 825Q364.6 825 269.8 730.2T175 500Q175 364.6 269.8 269.8000000000001T500 175zM500 500z" />
    <glyph glyph-name="info_20px-1"
      unicode="&#x69;&#x6E;&#x66;&#x6F;&#x5F;&#x32;&#x30;&#x70;&#x78;"
      horiz-adv-x="1000" d="M462.5 300H537.5V550H462.5zM500 625Q515.6 625 526.5500000000001 635.95Q537.5 646.9000000000001 537.5 662.5Q537.5 678.1 526.5500000000001 689.05Q515.6 700 500 700Q484.4 700 473.45 689.05Q462.5 678.0999999999999 462.5 662.5Q462.5 646.9 473.45 635.95Q484.3999999999999 625 500 625zM500 100Q417.7 100 344.8 131.25Q271.9 162.5 217.2 217.1999999999999T131.25 344.8Q100 417.7 100 500Q100 583.3499999999999 131.25 655.75Q162.5 728.1 217.2 782.8000000000001Q271.9 837.5 344.8 868.75T500 900Q583.35 900 655.75 868.75Q728.1 837.5 782.8000000000001 782.8Q837.5 728.0999999999999 868.75 655.75Q900 583.3499999999999 900 500Q900 417.7 868.75 344.8000000000001Q837.5 271.9 782.8000000000001 217.2000000000001T655.75 131.25Q583.35 100 500 100zM500 175Q635.4 175 730.1999999999999 269.8000000000001T825 500Q825 635.4000000000001 730.1999999999999 730.2T500 825Q364.6 825 269.8 730.2T175 500Q175 364.6 269.8 269.8000000000001T500 175zM500 500z" />
    <glyph glyph-name="logout_20px"
      unicode="&#xEA1E;"
      horiz-adv-x="1000" d="M225 150Q193.75 150 171.9 171.9Q150 193.75 150 225V775Q150 806.25 171.9 828.1Q193.75 850 225 850H500V775H225V225H500V150zM675 325L621.9 378.1L706.25 462.5H400V537.5H706.25L621.9 621.9L675 675L850 500z" />
    <glyph glyph-name="logout_20px-1"
      unicode="&#x6C;&#x6F;&#x67;&#x6F;&#x75;&#x74;&#x5F;&#x32;&#x30;&#x70;&#x78;"
      horiz-adv-x="1000" d="M225 150Q193.75 150 171.9 171.9Q150 193.75 150 225V775Q150 806.25 171.9 828.1Q193.75 850 225 850H500V775H225V225H500V150zM675 325L621.9 378.1L706.25 462.5H400V537.5H706.25L621.9 621.9L675 675L850 500z" />
    <glyph glyph-name="logout_fill1_20px"
      unicode="&#xEA1F;"
      horiz-adv-x="1000" d="M225 150Q193.75 150 171.9 171.9Q150 193.75 150 225V775Q150 806.25 171.9 828.1Q193.75 850 225 850H500V775H225V225H500V150zM675 325L621.9 378.1L706.25 462.5H400V537.5H706.25L621.9 621.9L675 675L850 500z" />
    <glyph glyph-name="logout_fill1_20px-1"
      unicode="&#x6C;&#x6F;&#x67;&#x6F;&#x75;&#x74;&#x5F;&#x66;&#x69;&#x6C;&#x6C;&#x31;&#x5F;&#x32;&#x30;&#x70;&#x78;"
      horiz-adv-x="1000" d="M225 150Q193.75 150 171.9 171.9Q150 193.75 150 225V775Q150 806.25 171.9 828.1Q193.75 850 225 850H500V775H225V225H500V150zM675 325L621.9 378.1L706.25 462.5H400V537.5H706.25L621.9 621.9L675 675L850 500z" />
    <glyph glyph-name="menu_20px"
      unicode="&#xEA20;"
      horiz-adv-x="1000" d="M150 275V350H850V275zM150 462.5V537.5H850V462.5zM150 650V725H850V650z" />
    <glyph glyph-name="menu_20px-1"
      unicode="&#x6D;&#x65;&#x6E;&#x75;&#x5F;&#x32;&#x30;&#x70;&#x78;"
      horiz-adv-x="1000" d="M150 275V350H850V275zM150 462.5V537.5H850V462.5zM150 650V725H850V650z" />
    <glyph glyph-name="more_vert_20px"
      unicode="&#xEA21;"
      horiz-adv-x="1000" d="M500 200Q468.75 200 446.9000000000001 221.9Q425 243.75 425 275T446.9000000000001 328.1Q468.75 350 500 350T553.1 328.1Q575 306.25 575 275T553.1 221.9Q531.25 200 500 200zM500 425Q468.75 425 446.9000000000001 446.9Q425 468.75 425 500T446.9000000000001 553.0999999999999Q468.75 575 500 575T553.1 553.0999999999999Q575 531.25 575 500T553.1 446.9Q531.25 425 500 425zM500 650Q468.75 650 446.9000000000001 671.9Q425 693.75 425 725T446.9000000000001 778.1Q468.75 800 500 800T553.1 778.1Q575 756.25 575 725T553.1 671.9Q531.25 650 500 650z" />
    <glyph glyph-name="more_vert_20px-1"
      unicode="&#x6D;&#x6F;&#x72;&#x65;&#x5F;&#x76;&#x65;&#x72;&#x74;&#x5F;&#x32;&#x30;&#x70;&#x78;"
      horiz-adv-x="1000" d="M500 200Q468.75 200 446.9000000000001 221.9Q425 243.75 425 275T446.9000000000001 328.1Q468.75 350 500 350T553.1 328.1Q575 306.25 575 275T553.1 221.9Q531.25 200 500 200zM500 425Q468.75 425 446.9000000000001 446.9Q425 468.75 425 500T446.9000000000001 553.0999999999999Q468.75 575 500 575T553.1 553.0999999999999Q575 531.25 575 500T553.1 446.9Q531.25 425 500 425zM500 650Q468.75 650 446.9000000000001 671.9Q425 693.75 425 725T446.9000000000001 778.1Q468.75 800 500 800T553.1 778.1Q575 756.25 575 725T553.1 671.9Q531.25 650 500 650z" />
    <glyph glyph-name="open_in_full_20px"
      unicode="&#xEA22;"
      horiz-adv-x="1000" d="M150 150V450H225V278.1L721.9 775H550V850H850V550H775V721.9L278.1 225H450V150z" />
    <glyph glyph-name="open_in_full_20px-1"
      unicode="&#x6F;&#x70;&#x65;&#x6E;&#x5F;&#x69;&#x6E;&#x5F;&#x66;&#x75;&#x6C;&#x6C;&#x5F;&#x32;&#x30;&#x70;&#x78;"
      horiz-adv-x="1000" d="M150 150V450H225V278.1L721.9 775H550V850H850V550H775V721.9L278.1 225H450V150z" />
    <glyph glyph-name="open_in_full_fill1_20px"
      unicode="&#xEA23;"
      horiz-adv-x="1000" d="M150 150V450H225V278.1L721.9 775H550V850H850V550H775V721.9L278.1 225H450V150z" />
    <glyph glyph-name="open_in_full_fill1_20px-1"
      unicode="&#x6F;&#x70;&#x65;&#x6E;&#x5F;&#x69;&#x6E;&#x5F;&#x66;&#x75;&#x6C;&#x6C;&#x5F;&#x66;&#x69;&#x6C;&#x6C;&#x31;&#x5F;&#x32;&#x30;&#x70;&#x78;"
      horiz-adv-x="1000" d="M150 150V450H225V278.1L721.9 775H550V850H850V550H775V721.9L278.1 225H450V150z" />
    <glyph glyph-name="query_stats_20px"
      unicode="&#xEA24;"
      horiz-adv-x="1000" d="M111.45 256.25L50 300L250 625L375 475L550 750L675 575Q653.1 575 632.8000000000001 571.9000000000001Q612.5 568.75 592.7 561.45L553.1 615.6000000000001L383.3500000000001 347.9000000000001L259.4000000000001 496.9000000000001zM896.9 50L768.7499999999999 178.1Q747.8999999999999 164.6000000000001 724.4999999999999 157.3000000000001Q701.05 150 674.9999999999999 150Q602.0999999999999 150 551.0499999999998 201.0500000000001Q500 252.1 500 325Q500 397.9 551.0500000000001 448.95Q602.1 500 675 500Q747.9 500 798.9499999999999 448.95Q850 397.9 850 325Q850 298.95 842.6999999999999 275.5Q835.3999999999999 252.1 821.9 231.25L950 103.1zM675 225Q716.65 225 745.85 254.15Q775 283.35 775 325Q775 366.65 745.85 395.85Q716.65 425 675 425Q633.35 425 604.15 395.85Q575 366.65 575 325Q575 283.35 604.15 254.15Q633.35 225 675 225zM756.25 561.4499999999999Q737.5 568.75 716.65 571.8999999999999Q695.85 574.9999999999999 675 574.9999999999999L888.5500000000001 900L950 856.25z" />
    <glyph glyph-name="query_stats_20px-1"
      unicode="&#x71;&#x75;&#x65;&#x72;&#x79;&#x5F;&#x73;&#x74;&#x61;&#x74;&#x73;&#x5F;&#x32;&#x30;&#x70;&#x78;"
      horiz-adv-x="1000" d="M111.45 256.25L50 300L250 625L375 475L550 750L675 575Q653.1 575 632.8000000000001 571.9000000000001Q612.5 568.75 592.7 561.45L553.1 615.6000000000001L383.3500000000001 347.9000000000001L259.4000000000001 496.9000000000001zM896.9 50L768.7499999999999 178.1Q747.8999999999999 164.6000000000001 724.4999999999999 157.3000000000001Q701.05 150 674.9999999999999 150Q602.0999999999999 150 551.0499999999998 201.0500000000001Q500 252.1 500 325Q500 397.9 551.0500000000001 448.95Q602.1 500 675 500Q747.9 500 798.9499999999999 448.95Q850 397.9 850 325Q850 298.95 842.6999999999999 275.5Q835.3999999999999 252.1 821.9 231.25L950 103.1zM675 225Q716.65 225 745.85 254.15Q775 283.35 775 325Q775 366.65 745.85 395.85Q716.65 425 675 425Q633.35 425 604.15 395.85Q575 366.65 575 325Q575 283.35 604.15 254.15Q633.35 225 675 225zM756.25 561.4499999999999Q737.5 568.75 716.65 571.8999999999999Q695.85 574.9999999999999 675 574.9999999999999L888.5500000000001 900L950 856.25z" />
    <glyph glyph-name="remove_20px"
      unicode="&#xEA25;"
      horiz-adv-x="1000" d="M250 462.5V537.5H750V462.5z" />
    <glyph glyph-name="remove_20px-1"
      unicode="&#x72;&#x65;&#x6D;&#x6F;&#x76;&#x65;&#x5F;&#x32;&#x30;&#x70;&#x78;"
      horiz-adv-x="1000" d="M250 462.5V537.5H750V462.5z" />
    <glyph glyph-name="search_20px"
      unicode="&#xEA26;"
      horiz-adv-x="1000" d="M796.9 150L547.9 398.95Q516.65 376.05 479.15 363Q441.6500000000001 350 400 350Q295.85 350 222.9 422.9Q150 495.85 150 600Q150 704.1500000000001 222.9 777.1Q295.85 850 400 850Q504.15 850 577.1 777.1Q650 704.1500000000001 650 600Q650 558.3499999999999 637 520.8499999999999Q623.95 483.35 601.0500000000001 452.1L850 203.1zM400 425Q472.9 425 523.9499999999999 476.0500000000001Q575 527.0999999999999 575 600Q575 672.9000000000001 523.9499999999999 723.95Q472.9 775 400 775Q327.1 775 276.05 723.95Q225 672.9000000000001 225 600Q225 527.0999999999999 276.05 476.0500000000001Q327.1 425 400 425z" />
    <glyph glyph-name="search_20px-1"
      unicode="&#x73;&#x65;&#x61;&#x72;&#x63;&#x68;&#x5F;&#x32;&#x30;&#x70;&#x78;"
      horiz-adv-x="1000" d="M796.9 150L547.9 398.95Q516.65 376.05 479.15 363Q441.6500000000001 350 400 350Q295.85 350 222.9 422.9Q150 495.85 150 600Q150 704.1500000000001 222.9 777.1Q295.85 850 400 850Q504.15 850 577.1 777.1Q650 704.1500000000001 650 600Q650 558.3499999999999 637 520.8499999999999Q623.95 483.35 601.0500000000001 452.1L850 203.1zM400 425Q472.9 425 523.9499999999999 476.0500000000001Q575 527.0999999999999 575 600Q575 672.9000000000001 523.9499999999999 723.95Q472.9 775 400 775Q327.1 775 276.05 723.95Q225 672.9000000000001 225 600Q225 527.0999999999999 276.05 476.0500000000001Q327.1 425 400 425z" />
    <glyph glyph-name="search_40px"
      unicode="&#xEA27;"
      horiz-adv-x="1000" d="M825 126.0500000000001L555.1999999999999 395.825Q523.9499999999999 369.8 482.3 354.7Q440.6249999999999 339.575 394.8 339.575Q281.25 339.575 203.125 417.7T125 607.3Q125 718.75 203.125 797.4000000000001T393.75 876.05Q505.1999999999999 876.05 583.3249999999999 797.4000000000001T661.4499999999999 607.3000000000001Q661.4499999999999 562.5 646.875 521.3500000000001Q632.3000000000001 480.2 604.1750000000001 444.8000000000001L875 176.0500000000001zM393.75 409.375Q476.0500000000001 409.375 533.85 467.1999999999999Q591.675 525 591.675 607.3Q591.675 689.5749999999999 533.85 747.925Q476.0500000000001 806.25 393.75 806.25Q310.425 806.25 252.6 747.925Q194.8 689.575 194.8 607.3Q194.8 525 252.6 467.1999999999999Q310.425 409.375 393.75 409.375z" />
    <glyph glyph-name="search_40px-1"
      unicode="&#x73;&#x65;&#x61;&#x72;&#x63;&#x68;&#x5F;&#x34;&#x30;&#x70;&#x78;"
      horiz-adv-x="1000" d="M825 126.0500000000001L555.1999999999999 395.825Q523.9499999999999 369.8 482.3 354.7Q440.6249999999999 339.575 394.8 339.575Q281.25 339.575 203.125 417.7T125 607.3Q125 718.75 203.125 797.4000000000001T393.75 876.05Q505.1999999999999 876.05 583.3249999999999 797.4000000000001T661.4499999999999 607.3000000000001Q661.4499999999999 562.5 646.875 521.3500000000001Q632.3000000000001 480.2 604.1750000000001 444.8000000000001L875 176.0500000000001zM393.75 409.375Q476.0500000000001 409.375 533.85 467.1999999999999Q591.675 525 591.675 607.3Q591.675 689.5749999999999 533.85 747.925Q476.0500000000001 806.25 393.75 806.25Q310.425 806.25 252.6 747.925Q194.8 689.575 194.8 607.3Q194.8 525 252.6 467.1999999999999Q310.425 409.375 393.75 409.375z" />
    <glyph glyph-name="search_fill1_20px"
      unicode="&#xEA28;"
      horiz-adv-x="1000" d="M796.9 150L547.9 398.95Q516.65 376.05 479.15 363Q441.6500000000001 350 400 350Q295.85 350 222.9 422.9Q150 495.85 150 600Q150 704.1500000000001 222.9 777.1Q295.85 850 400 850Q504.15 850 577.1 777.1Q650 704.1500000000001 650 600Q650 558.3499999999999 637 520.8499999999999Q623.95 483.35 601.0500000000001 452.1L850 203.1zM400 425Q472.9 425 523.9499999999999 476.0500000000001Q575 527.0999999999999 575 600Q575 672.9000000000001 523.9499999999999 723.95Q472.9 775 400 775Q327.1 775 276.05 723.95Q225 672.9000000000001 225 600Q225 527.0999999999999 276.05 476.0500000000001Q327.1 425 400 425z" />
    <glyph glyph-name="search_fill1_20px-1"
      unicode="&#x73;&#x65;&#x61;&#x72;&#x63;&#x68;&#x5F;&#x66;&#x69;&#x6C;&#x6C;&#x31;&#x5F;&#x32;&#x30;&#x70;&#x78;"
      horiz-adv-x="1000" d="M796.9 150L547.9 398.95Q516.65 376.05 479.15 363Q441.6500000000001 350 400 350Q295.85 350 222.9 422.9Q150 495.85 150 600Q150 704.1500000000001 222.9 777.1Q295.85 850 400 850Q504.15 850 577.1 777.1Q650 704.1500000000001 650 600Q650 558.3499999999999 637 520.8499999999999Q623.95 483.35 601.0500000000001 452.1L850 203.1zM400 425Q472.9 425 523.9499999999999 476.0500000000001Q575 527.0999999999999 575 600Q575 672.9000000000001 523.9499999999999 723.95Q472.9 775 400 775Q327.1 775 276.05 723.95Q225 672.9000000000001 225 600Q225 527.0999999999999 276.05 476.0500000000001Q327.1 425 400 425z" />
    <glyph glyph-name="security_20px"
      unicode="&#xEA29;"
      horiz-adv-x="1000" d="M500 83.3500000000001Q355.2 118.75 260.95 248.4500000000001Q166.65 378.1 166.65 536.45V792.7L500 916.65L833.3500000000001 792.7V536.4499999999999Q833.3500000000001 378.1 739.0500000000001 248.45Q644.8000000000002 118.75 500.0000000000002 83.3499999999999zM500 176.0500000000001Q597.9 205.2000000000001 664.6 296.35Q731.25 387.5 742.6999999999999 500H500V822.9L254.15 732.3V518.25Q254.15 511.45 256.25 500H500z" />
    <glyph glyph-name="security_20px-1"
      unicode="&#x73;&#x65;&#x63;&#x75;&#x72;&#x69;&#x74;&#x79;&#x5F;&#x32;&#x30;&#x70;&#x78;"
      horiz-adv-x="1000" d="M500 83.3500000000001Q355.2 118.75 260.95 248.4500000000001Q166.65 378.1 166.65 536.45V792.7L500 916.65L833.3500000000001 792.7V536.4499999999999Q833.3500000000001 378.1 739.0500000000001 248.45Q644.8000000000002 118.75 500.0000000000002 83.3499999999999zM500 176.0500000000001Q597.9 205.2000000000001 664.6 296.35Q731.25 387.5 742.6999999999999 500H500V822.9L254.15 732.3V518.25Q254.15 511.45 256.25 500H500z" />
    <glyph glyph-name="show_chart_24px"
      unicode="&#xEA2A;"
      horiz-adv-x="1000" d="M145.8333333333333 229.1666666666668L83.3333333333333 291.6666666666668L395.8333333333333 604.1666666666667L562.5 437.5L858.3333333333334 770.8333333333334L916.6666666666666 712.5L562.5 312.5L395.8333333333333 479.1666666666667z" />
    <glyph glyph-name="show_chart_24px-1"
      unicode="&#x73;&#x68;&#x6F;&#x77;&#x5F;&#x63;&#x68;&#x61;&#x72;&#x74;&#x5F;&#x32;&#x34;&#x70;&#x78;"
      horiz-adv-x="1000" d="M145.8333333333333 229.1666666666668L83.3333333333333 291.6666666666668L395.8333333333333 604.1666666666667L562.5 437.5L858.3333333333334 770.8333333333334L916.6666666666666 712.5L562.5 312.5L395.8333333333333 479.1666666666667z" />
    <glyph glyph-name="show_chart_40px"
      unicode="&#xEA2B;"
      horiz-adv-x="1000" d="M136.45 229.1750000000001L83.325 282.3000000000001L395.825 594.8000000000001L562.5 427.0750000000001L867.6999999999999 770.825L916.675 722.9250000000001L562.5 322.9250000000001L395.825 488.5500000000001z" />
    <glyph glyph-name="show_chart_40px-1"
      unicode="&#x73;&#x68;&#x6F;&#x77;&#x5F;&#x63;&#x68;&#x61;&#x72;&#x74;&#x5F;&#x34;&#x30;&#x70;&#x78;"
      horiz-adv-x="1000" d="M136.45 229.1750000000001L83.325 282.3000000000001L395.825 594.8000000000001L562.5 427.0750000000001L867.6999999999999 770.825L916.675 722.9250000000001L562.5 322.9250000000001L395.825 488.5500000000001z" />
    <glyph glyph-name="star_20px"
      unicode="&#xEA2C;"
      horiz-adv-x="1000" d="M253.1 100L346.9000000000001 403.1L100 585.4000000000001H403.1000000000001L500 900L596.9 585.4000000000001H900L653.1 403.1L746.9 100L500 287.5z" />
    <glyph glyph-name="star_20px-1"
      unicode="&#x73;&#x74;&#x61;&#x72;&#x5F;&#x32;&#x30;&#x70;&#x78;"
      horiz-adv-x="1000" d="M253.1 100L346.9000000000001 403.1L100 585.4000000000001H403.1000000000001L500 900L596.9 585.4000000000001H900L653.1 403.1L746.9 100L500 287.5z" />
    <glyph glyph-name="star_fill1_20px"
      unicode="&#xEA2D;"
      horiz-adv-x="1000" d="M253.1 100L346.9000000000001 403.1L100 585.4000000000001H403.1000000000001L500 900L596.9 585.4000000000001H900L653.1 403.1L746.9 100L500 287.5z" />
    <glyph glyph-name="star_fill1_20px-1"
      unicode="&#x73;&#x74;&#x61;&#x72;&#x5F;&#x66;&#x69;&#x6C;&#x6C;&#x31;&#x5F;&#x32;&#x30;&#x70;&#x78;"
      horiz-adv-x="1000" d="M253.1 100L346.9000000000001 403.1L100 585.4000000000001H403.1000000000001L500 900L596.9 585.4000000000001H900L653.1 403.1L746.9 100L500 287.5z" />
    <glyph glyph-name="warning_40px"
      unicode="&#xEA2E;"
      horiz-adv-x="1000" d="M501.0500000000001 486.4499999999999zM41.675 125L500 916.675L958.325 125zM467.7 366.6750000000001H537.5V591.6750000000001H467.6999999999999zM503.1250000000001 247.9250000000001Q517.7 247.9250000000001 527.6 257.8000000000001Q537.5000000000001 267.7000000000001 537.5000000000001 282.3000000000001Q537.5000000000001 297.9250000000001 527.6 307.8000000000001Q517.7 317.7000000000001 503.1250000000001 317.7000000000001Q487.5000000000001 317.7000000000001 477.6000000000001 307.3000000000001Q467.7 296.875 467.7 282.3000000000001Q467.7 267.7000000000001 478.1250000000001 257.8000000000001Q488.5500000000001 247.9250000000001 503.1250000000001 247.9250000000001zM161.45 194.8000000000001H838.5500000000001L500 778.125z" />
    <glyph glyph-name="warning_40px-1"
      unicode="&#x77;&#x61;&#x72;&#x6E;&#x69;&#x6E;&#x67;&#x5F;&#x34;&#x30;&#x70;&#x78;"
      horiz-adv-x="1000" d="M501.0500000000001 486.4499999999999zM41.675 125L500 916.675L958.325 125zM467.7 366.6750000000001H537.5V591.6750000000001H467.6999999999999zM503.1250000000001 247.9250000000001Q517.7 247.9250000000001 527.6 257.8000000000001Q537.5000000000001 267.7000000000001 537.5000000000001 282.3000000000001Q537.5000000000001 297.9250000000001 527.6 307.8000000000001Q517.7 317.7000000000001 503.1250000000001 317.7000000000001Q487.5000000000001 317.7000000000001 477.6000000000001 307.3000000000001Q467.7 296.875 467.7 282.3000000000001Q467.7 267.7000000000001 478.1250000000001 257.8000000000001Q488.5500000000001 247.9250000000001 503.1250000000001 247.9250000000001zM161.45 194.8000000000001H838.5500000000001L500 778.125z" />
    <glyph glyph-name="warning_48px"
      unicode="&#xEA2F;"
      horiz-adv-x="1000" d="M501.0416666666666 490.6250000000001zM41.6666666666667 125L500 916.6666666666666L958.3333333333331 125zM472.9166666666666 362.5H535.4166666666666V595.8333333333334H472.9166666666666zM504.1666666666666 246.8750000000001Q517.7083333333333 246.8750000000001 526.5624999999999 255.7291666666667Q535.4166666666666 264.5833333333333 535.4166666666666 278.1250000000001Q535.4166666666666 291.6666666666668 526.5624999999999 300.5208333333335Q517.7083333333333 309.3750000000001 504.1666666666666 309.3750000000001Q490.625 309.3750000000001 481.7708333333333 300.5208333333335Q472.9166666666666 291.6666666666668 472.9166666666666 278.1250000000001Q472.9166666666666 264.5833333333335 481.7708333333333 255.7291666666667Q490.625 246.8750000000001 504.1666666666666 246.8750000000001zM150 187.5H850L500 791.6666666666667z" />
    <glyph glyph-name="warning_48px-1"
      unicode="&#x77;&#x61;&#x72;&#x6E;&#x69;&#x6E;&#x67;&#x5F;&#x34;&#x38;&#x70;&#x78;"
      horiz-adv-x="1000" d="M501.0416666666666 490.6250000000001zM41.6666666666667 125L500 916.6666666666666L958.3333333333331 125zM472.9166666666666 362.5H535.4166666666666V595.8333333333334H472.9166666666666zM504.1666666666666 246.8750000000001Q517.7083333333333 246.8750000000001 526.5624999999999 255.7291666666667Q535.4166666666666 264.5833333333333 535.4166666666666 278.1250000000001Q535.4166666666666 291.6666666666668 526.5624999999999 300.5208333333335Q517.7083333333333 309.3750000000001 504.1666666666666 309.3750000000001Q490.625 309.3750000000001 481.7708333333333 300.5208333333335Q472.9166666666666 291.6666666666668 472.9166666666666 278.1250000000001Q472.9166666666666 264.5833333333335 481.7708333333333 255.7291666666667Q490.625 246.8750000000001 504.1666666666666 246.8750000000001zM150 187.5H850L500 791.6666666666667z" />
    <glyph glyph-name="work_20px"
      unicode="&#xEA30;"
      horiz-adv-x="1000" d="M170.85 125Q134.4 125 108.85 150.5000000000001Q83.35 176.0500000000001 83.35 212.5000000000001V660.4000000000001Q83.35 696.9000000000001 108.85 722.4000000000001Q134.4 747.9 170.85 747.9H327.1V829.15Q327.1 865.6 352.6 891.15Q378.1 916.65 414.6 916.65H585.4Q621.9 916.65 647.4 891.15Q672.9 865.6 672.9 829.15V747.9H829.1499999999999Q865.5999999999999 747.9 891.1499999999999 722.4000000000001Q916.6499999999997 696.9000000000001 916.6499999999997 660.4000000000001V212.5Q916.6499999999997 176.0500000000001 891.1499999999999 150.5000000000001Q865.5999999999999 125 829.1499999999999 125zM414.6 747.9H585.4V829.15H414.6zM170.85 212.5H829.1499999999999V660.4000000000001H170.85V212.5zM170.85 212.5V660.4000000000001V212.5z" />
    <glyph glyph-name="work_20px-1"
      unicode="&#x77;&#x6F;&#x72;&#x6B;&#x5F;&#x32;&#x30;&#x70;&#x78;"
      horiz-adv-x="1000" d="M170.85 125Q134.4 125 108.85 150.5000000000001Q83.35 176.0500000000001 83.35 212.5000000000001V660.4000000000001Q83.35 696.9000000000001 108.85 722.4000000000001Q134.4 747.9 170.85 747.9H327.1V829.15Q327.1 865.6 352.6 891.15Q378.1 916.65 414.6 916.65H585.4Q621.9 916.65 647.4 891.15Q672.9 865.6 672.9 829.15V747.9H829.1499999999999Q865.5999999999999 747.9 891.1499999999999 722.4000000000001Q916.6499999999997 696.9000000000001 916.6499999999997 660.4000000000001V212.5Q916.6499999999997 176.0500000000001 891.1499999999999 150.5000000000001Q865.5999999999999 125 829.1499999999999 125zM414.6 747.9H585.4V829.15H414.6zM170.85 212.5H829.1499999999999V660.4000000000001H170.85V212.5zM170.85 212.5V660.4000000000001V212.5z" />
    <glyph glyph-name="work_40px"
      unicode="&#xEA31;"
      horiz-adv-x="1000" d="M153.125 125Q125 125 104.175 145.8249999999999Q83.325 166.6750000000001 83.325 194.8000000000001V689.575Q83.325 717.7 104.175 738.55Q125 759.375 153.125 759.375H340.625V846.875Q340.625 875 360.95 895.825Q381.25 916.675 409.375 916.675H590.625Q618.75 916.675 639.0500000000001 895.825Q659.375 875 659.375 846.875V759.375H846.875Q875 759.375 895.8249999999999 738.55Q916.675 717.7 916.675 689.575V194.8000000000001Q916.675 166.6750000000001 895.8249999999999 145.8249999999999Q875 125 846.875 125zM409.375 759.375H590.625V846.875H409.375zM153.125 194.8000000000001H846.875V689.575H153.125V194.8000000000001zM153.125 194.8000000000001V689.575V194.8000000000001z" />
    <glyph glyph-name="work_40px-1"
      unicode="&#x77;&#x6F;&#x72;&#x6B;&#x5F;&#x34;&#x30;&#x70;&#x78;"
      horiz-adv-x="1000" d="M153.125 125Q125 125 104.175 145.8249999999999Q83.325 166.6750000000001 83.325 194.8000000000001V689.575Q83.325 717.7 104.175 738.55Q125 759.375 153.125 759.375H340.625V846.875Q340.625 875 360.95 895.825Q381.25 916.675 409.375 916.675H590.625Q618.75 916.675 639.0500000000001 895.825Q659.375 875 659.375 846.875V759.375H846.875Q875 759.375 895.8249999999999 738.55Q916.675 717.7 916.675 689.575V194.8000000000001Q916.675 166.6750000000001 895.8249999999999 145.8249999999999Q875 125 846.875 125zM409.375 759.375H590.625V846.875H409.375zM153.125 194.8000000000001H846.875V689.575H153.125V194.8000000000001zM153.125 194.8000000000001V689.575V194.8000000000001z" />
    <glyph glyph-name="work_fill1_20px"
      unicode="&#xEA32;"
      horiz-adv-x="1000" d="M170.85 125Q134.4 125 108.85 150.5000000000001Q83.35 176.0500000000001 83.35 212.5000000000001V660.4000000000001Q83.35 696.9000000000001 108.85 722.4000000000001Q134.4 747.9 170.85 747.9H327.1V829.15Q327.1 865.6 352.6 891.15Q378.1 916.65 414.6 916.65H585.4Q621.9 916.65 647.4 891.15Q672.9 865.6 672.9 829.15V747.9H829.1499999999999Q865.5999999999999 747.9 891.1499999999999 722.4000000000001Q916.6499999999997 696.9000000000001 916.6499999999997 660.4000000000001V212.5Q916.6499999999997 176.0500000000001 891.1499999999999 150.5000000000001Q865.5999999999999 125 829.1499999999999 125zM414.6 747.9H585.4V829.15H414.6z" />
    <glyph glyph-name="work_fill1_20px-1"
      unicode="&#x77;&#x6F;&#x72;&#x6B;&#x5F;&#x66;&#x69;&#x6C;&#x6C;&#x31;&#x5F;&#x32;&#x30;&#x70;&#x78;"
      horiz-adv-x="1000" d="M170.85 125Q134.4 125 108.85 150.5000000000001Q83.35 176.0500000000001 83.35 212.5000000000001V660.4000000000001Q83.35 696.9000000000001 108.85 722.4000000000001Q134.4 747.9 170.85 747.9H327.1V829.15Q327.1 865.6 352.6 891.15Q378.1 916.65 414.6 916.65H585.4Q621.9 916.65 647.4 891.15Q672.9 865.6 672.9 829.15V747.9H829.1499999999999Q865.5999999999999 747.9 891.1499999999999 722.4000000000001Q916.6499999999997 696.9000000000001 916.6499999999997 660.4000000000001V212.5Q916.6499999999997 176.0500000000001 891.1499999999999 150.5000000000001Q865.5999999999999 125 829.1499999999999 125zM414.6 747.9H585.4V829.15H414.6z" />
  </font>
</defs>
</svg>
